CERCA
PER MODELLO
FullScreen Chatbox! :)

Utente del giorno: Stahl con ben 24 Thanks ricevuti nelle ultime 24 ore
Utente della settimana: Stahl con ben 115 Thanks ricevuti negli ultimi sette giorni
Utente del mese: Stahl con ben 454 Thanks ricevuti nell'ultimo mese

Pagina 2 di 6 primaprima 1234 ... ultimoultimo
Ultima pagina
Visualizzazione dei risultati da 11 a 20 su 53
Discussione:

[BETA][BASH] Convertitore video per device Android!

Se questa discussione ti Ŕ stata utile, ti preghiamo di lasciare un messaggio di feedback in modo che possa essere preziosa in futuro anche per altri utenti come te!
  1. #11
    Senior Droid L'avatar di pierissimo


    Registrato dal
    Apr 2009
    Messaggi
    886

    Ringraziamenti
    1
    Ringraziato 37 volte in 37 Posts
    Predefinito

    Quote Originariamente inviato da elegos Visualizza il messaggio
    fico, non sapevo esistesse "CLI-only" di handbrake!

    Solo che con FFmpeg puoi ottimizzare al midollo la conversione A/V
    si ovviamente ffmpeg Ŕ completissimo, ma handbrakeCLI fa tutto lui eheh.
    Si sono pigro.

  2.  
  3. #12
    Senior Droid L'avatar di daimadoshi85


    Registrato dal
    Feb 2010
    LocalitÓ
    Bologna
    Messaggi
    525

    Ringraziamenti
    19
    Ringraziato 23 volte in 18 Posts
    Predefinito

    Quote Originariamente inviato da pierissimo Visualizza il messaggio
    si ovviamente ffmpeg Ŕ completissimo, ma handbrakeCLI fa tutto lui eheh.
    Si sono pigro.
    Ottimo script!Lo prover˛ appena sar˛ sul mio pc

    Sempre per stare in tema, qualcuno ha provato doubleTwist invece?io l'ho provato per windows e mi pare ottimo.

  4. #13
    Super Droid L'avatar di nk02


    Registrato dal
    Mar 2009
    LocalitÓ
    Padova
    Messaggi
    4,016
    Smartphone
    Nexus 1 & S - HD2

    Ringraziamenti
    10
    Ringraziato 506 volte in 260 Posts
    Predefinito

    elegos domani do un occhio, mi pare impossibile dover rixompilare ffmpeg.. al max do un occhio nei repo Debian multimedia prima (di solito li tengo commentati). Cmq sei grande:-)

  5. #14
    Senior Droid L'avatar di AndroBoz


    Registrato dal
    May 2010
    LocalitÓ
    Treviso
    Messaggi
    342
    Smartphone
    Sony Xperia S

    Ringraziamenti
    11
    Ringraziato 15 volte in 15 Posts
    Predefinito

    io ho provato a installarlo dai repo (manca libfaac) e a ricompilarlo 2 volte, una volta non andava pi¨ niente, la seconda ha fallito l'installazione.

    Quindi io attualmente ci rinuncio per nabbaggine mia.


    HTC Legend
    Blayo 0.8.4 (Ottima!)

    HTC Desire HD
    ENG Hboot - S-OFF
    Recovery: 4EXT Recovery
    ROM: Virtuos 4 - Ice Cream Sandwich!


    Welcome Xperia S!

  6. #15
    Androidiano VIP L'avatar di elegos


    Registrato dal
    Jul 2009
    Messaggi
    1,714

    Ringraziamenti
    2
    Ringraziato 153 volte in 120 Posts
    Predefinito

    Se volete posso provare a creare un pacchetto debian dalla macchina virtuale (del capo, con un psssss nella gomma :P )

  7. #16
    Senior Droid L'avatar di AndroBoz


    Registrato dal
    May 2010
    LocalitÓ
    Treviso
    Messaggi
    342
    Smartphone
    Sony Xperia S

    Ringraziamenti
    11
    Ringraziato 15 volte in 15 Posts
    Predefinito

    Beh se riesci magari, su internet non si trovano i pacchetti deb per problemi legali sulla licenza della libfaac (maledetta).

    Ah, falla anche per i vecchi, poveri 32bit se riesci...


    HTC Legend
    Blayo 0.8.4 (Ottima!)

    HTC Desire HD
    ENG Hboot - S-OFF
    Recovery: 4EXT Recovery
    ROM: Virtuos 4 - Ice Cream Sandwich!


    Welcome Xperia S!

  8. #17
    Androidiano VIP L'avatar di elegos


    Registrato dal
    Jul 2009
    Messaggi
    1,714

    Ringraziamenti
    2
    Ringraziato 153 volte in 120 Posts
    Predefinito

    ffmpeg_0.5.1-1ubuntu1_i386.zip

    Per i 64bit: mi dispiace, ma la virutale Ŕ in 32bit =\

  9. Il seguente Utente ha ringraziato elegos per il post:

    AndroBoz (19-06-10)

  10. #18
    Senior Droid L'avatar di AndroBoz


    Registrato dal
    May 2010
    LocalitÓ
    Treviso
    Messaggi
    342
    Smartphone
    Sony Xperia S

    Ringraziamenti
    11
    Ringraziato 15 volte in 15 Posts
    Predefinito

    Rispetto a prima siamo un passo avanti, ora almeno mi fa l'encoding, quindi siamo a posto con le librerie, solo che l'output alla fine Ŕ questo:
    codice:
    alby@alby-laptop:~/VideoConverter$ ./avc -i /media/EXT_HARD/Cubo_Rubick.mp4 -d htc_legend
    EleGoS' Advanced Video Converter for Android Devices v.1.0
    
    FFmpeg version SVN-r0.5.1-4:0.5.1-1ubuntu1, Copyright (c) 2000-2009 Fabrice Bellard, et al.
      configuration: --extra-version=4:0.5.1-1ubuntu1 --prefix=/usr --enable-avfilter --enable-avfilter-lavf --enable-vdpau --enable-bzlib --enable-libgsm --enable-libschroedinger --enable-libspeex --enable-libtheora --enable-libvorbis --enable-pthreads --enable-zlib --disable-stripping --disable-vhook --enable-runtime-cpudetect --enable-libmp3lame --enable-libmp3lame --enable-libfaac --enable-nonfree --enable-gpl --enable-postproc --enable-swscale --enable-x11grab --enable-libx264 --enable-libdc1394 --enable-shared --disable-static
      libavutil     49.15. 0 / 49.15. 0
      libavcodec    52.20. 1 / 52.20. 1
      libavformat   52.31. 0 / 52.31. 0
      libavdevice   52. 1. 0 / 52. 1. 0
      libavfilter    0. 4. 0 /  0. 4. 0
      libswscale     0. 7. 1 /  0. 7. 1
      libpostproc   51. 2. 0 / 51. 2. 0
      built on Jun 18 2010 13:31:34, gcc: 4.4.3
    Input #0, mov,mp4,m4a,3gp,3g2,mj2, from '/media/EXT_HARD/Cubo_Rubick.mp4':
      Duration: 00:00:32.25, start: 0.000000, bitrate: 2742 kb/s
        Stream #0.0(und): Video: mpeg4, yuv420p, 640x480 [PAR 1:1 DAR 4:3], 30k tbr, 30k tbn, 30k tbc
        Stream #0.1(und): Audio: aac, 48000 Hz, mono, s16
    Output #0, adts, to 'audio.aac':
        Stream #0.0(und): Audio: libfaac, 48000 Hz, stereo, s16, 128 kb/s
    Stream mapping:
      Stream #0.1 -> #0.0
    Press [q] to stop encoding
    size=     419kB time=32.15 bitrate= 106.7kbits/s    
    video:0kB audio:419kB global headers:0kB muxing overhead 0.000000%
    FFmpeg version SVN-r0.5.1-4:0.5.1-1ubuntu1, Copyright (c) 2000-2009 Fabrice Bellard, et al.
      configuration: --extra-version=4:0.5.1-1ubuntu1 --prefix=/usr --enable-avfilter --enable-avfilter-lavf --enable-vdpau --enable-bzlib --enable-libgsm --enable-libschroedinger --enable-libspeex --enable-libtheora --enable-libvorbis --enable-pthreads --enable-zlib --disable-stripping --disable-vhook --enable-runtime-cpudetect --enable-libmp3lame --enable-libmp3lame --enable-libfaac --enable-nonfree --enable-gpl --enable-postproc --enable-swscale --enable-x11grab --enable-libx264 --enable-libdc1394 --enable-shared --disable-static
      libavutil     49.15. 0 / 49.15. 0
      libavcodec    52.20. 1 / 52.20. 1
      libavformat   52.31. 0 / 52.31. 0
      libavdevice   52. 1. 0 / 52. 1. 0
      libavfilter    0. 4. 0 /  0. 4. 0
      libswscale     0. 7. 1 /  0. 7. 1
      libpostproc   51. 2. 0 / 51. 2. 0
      built on Jun 18 2010 13:31:34, gcc: 4.4.3
    Input #0, mov,mp4,m4a,3gp,3g2,mj2, from '/media/EXT_HARD/Cubo_Rubick.mp4':
      Duration: 00:00:32.25, start: 0.000000, bitrate: 2742 kb/s
        Stream #0.0(und): Video: mpeg4, yuv420p, 640x480 [PAR 1:1 DAR 4:3], 30k tbr, 30k tbn, 30k tbc
        Stream #0.1(und): Audio: aac, 48000 Hz, mono, s16
    Incorrect aspect ratio specification.
    FFmpeg version SVN-r0.5.1-4:0.5.1-1ubuntu1, Copyright (c) 2000-2009 Fabrice Bellard, et al.
      configuration: --extra-version=4:0.5.1-1ubuntu1 --prefix=/usr --enable-avfilter --enable-avfilter-lavf --enable-vdpau --enable-bzlib --enable-libgsm --enable-libschroedinger --enable-libspeex --enable-libtheora --enable-libvorbis --enable-pthreads --enable-zlib --disable-stripping --disable-vhook --enable-runtime-cpudetect --enable-libmp3lame --enable-libmp3lame --enable-libfaac --enable-nonfree --enable-gpl --enable-postproc --enable-swscale --enable-x11grab --enable-libx264 --enable-libdc1394 --enable-shared --disable-static
      libavutil     49.15. 0 / 49.15. 0
      libavcodec    52.20. 1 / 52.20. 1
      libavformat   52.31. 0 / 52.31. 0
      libavdevice   52. 1. 0 / 52. 1. 0
      libavfilter    0. 4. 0 /  0. 4. 0
      libswscale     0. 7. 1 /  0. 7. 1
      libpostproc   51. 2. 0 / 51. 2. 0
      built on Jun 18 2010 13:31:34, gcc: 4.4.3
    Input #0, mov,mp4,m4a,3gp,3g2,mj2, from '/media/EXT_HARD/Cubo_Rubick.mp4':
      Duration: 00:00:32.25, start: 0.000000, bitrate: 2742 kb/s
        Stream #0.0(und): Video: mpeg4, yuv420p, 640x480 [PAR 1:1 DAR 4:3], 30k tbr, 30k tbn, 30k tbc
        Stream #0.1(und): Audio: aac, 48000 Hz, mono, s16
    Incorrect aspect ratio specification.
    FFmpeg version SVN-r0.5.1-4:0.5.1-1ubuntu1, Copyright (c) 2000-2009 Fabrice Bellard, et al.
      configuration: --extra-version=4:0.5.1-1ubuntu1 --prefix=/usr --enable-avfilter --enable-avfilter-lavf --enable-vdpau --enable-bzlib --enable-libgsm --enable-libschroedinger --enable-libspeex --enable-libtheora --enable-libvorbis --enable-pthreads --enable-zlib --disable-stripping --disable-vhook --enable-runtime-cpudetect --enable-libmp3lame --enable-libmp3lame --enable-libfaac --enable-nonfree --enable-gpl --enable-postproc --enable-swscale --enable-x11grab --enable-libx264 --enable-libdc1394 --enable-shared --disable-static
      libavutil     49.15. 0 / 49.15. 0
      libavcodec    52.20. 1 / 52.20. 1
      libavformat   52.31. 0 / 52.31. 0
      libavdevice   52. 1. 0 / 52. 1. 0
      libavfilter    0. 4. 0 /  0. 4. 0
      libswscale     0. 7. 1 /  0. 7. 1
      libpostproc   51. 2. 0 / 51. 2. 0
      built on Jun 18 2010 13:31:34, gcc: 4.4.3
    tmp-video.mp4: no such file or directory
    rm: impossibile rimuovere `tmp-video.mp4': Nessun file o directory
    rm: impossibile rimuovere `*.log*': Nessun file o directory
    C'Ŕ questo Incorrect aspect ratio specification. che incorre troppo spesso.

    Ho provato con file mp4 da cell, mp4 a 720p, flv da youtube, avi 16/9 e avi 4/3.

    Sempre lo stesso risultato.


    HTC Legend
    Blayo 0.8.4 (Ottima!)

    HTC Desire HD
    ENG Hboot - S-OFF
    Recovery: 4EXT Recovery
    ROM: Virtuos 4 - Ice Cream Sandwich!


    Welcome Xperia S!

  11. #19
    Androidiano VIP L'avatar di elegos


    Registrato dal
    Jul 2009
    Messaggi
    1,714

    Ringraziamenti
    2
    Ringraziato 153 volte in 120 Posts
    Predefinito

    Devi prendere lo script v.1.1 messo ieri, fixa proprio quel problema

  12. #20
    Senior Droid L'avatar di AndroBoz


    Registrato dal
    May 2010
    LocalitÓ
    Treviso
    Messaggi
    342
    Smartphone
    Sony Xperia S

    Ringraziamenti
    11
    Ringraziato 15 volte in 15 Posts
    Predefinito

    SUCCESSFUL!

    Ho convertito una puntata dei griffin e si vede molto bene..

    Grande!

    Ora far˛ varie prove su diversi file video.


    HTC Legend
    Blayo 0.8.4 (Ottima!)

    HTC Desire HD
    ENG Hboot - S-OFF
    Recovery: 4EXT Recovery
    ROM: Virtuos 4 - Ice Cream Sandwich!


    Welcome Xperia S!

Pagina 2 di 6 primaprima 1234 ... ultimoultimo
Ultima pagina

Permessi di invio

  • Non puoi inserire discussioni
  • Non puoi inserire risposte
  • Non puoi inserire allegati
  • Non puoi modificare i tuoi messaggi
  •  
Torna su
Privacy Policy