CERCA
PER MODELLO
FullScreen Chatbox! :)

Utente del giorno: Stahl con ben 11 Thanks ricevuti nelle ultime 24 ore
Utente della settimana: Stahl con ben 88 Thanks ricevuti negli ultimi sette giorni
Utente del mese: Stahl con ben 429 Thanks ricevuti nell'ultimo mese

Pagina 4 di 6 primaprima ... 23456 ultimoultimo
Ultima pagina
Visualizzazione dei risultati da 31 a 40 su 53
Discussione:

[BETA][BASH] Convertitore video per device Android!

Se questa discussione ti è stata utile, ti preghiamo di lasciare un messaggio di feedback in modo che possa essere preziosa in futuro anche per altri utenti come te!
  1. #31
    Androidiano VIP L'avatar di elegos


    Registrato dal
    Jul 2009
    Messaggi
    1,714

    Ringraziamenti
    2
    Ringraziato 153 volte in 120 Posts
    Predefinito

    OK, ho fatto delle prove e DOVREBBE andare

    Versione 1.6.1 disponibile!
    Aggiorna il file avc

  2.  
  3. #32
    Senior Droid L'avatar di AndroBoz


    Registrato dal
    May 2010
    Località
    Treviso
    Messaggi
    342
    Smartphone
    Sony Xperia S

    Ringraziamenti
    11
    Ringraziato 15 volte in 15 Posts
    Predefinito

    Con il file di prova è andato.

    Con il file di gates mov mi da ancora lo stesso problema, non so se dipenda da me, ma mi chiede di che tipo è l'input:

    codice:
    Please input the right AR (see the next line to guess it).
        Stream #0.0(eng): Video: cinepak, yuv420p, 240x180, 8 tbr, 8 tbn, 8 tbc
    e conclude la conversione solo mettendo 240x180, ma il risultato è un video di pochi pixel in altezza..

    Video di output


    HTC Legend
    Blayo 0.8.4 (Ottima!)

    HTC Desire HD
    ENG Hboot - S-OFF
    Recovery: 4EXT Recovery
    ROM: Virtuos 4 - Ice Cream Sandwich!


    Welcome Xperia S!

  4. #33
    Androidiano VIP L'avatar di elegos


    Registrato dal
    Jul 2009
    Messaggi
    1,714

    Ringraziamenti
    2
    Ringraziato 153 volte in 120 Posts
    Predefinito

    240:180=4:3

    Aspect Ratio = 4:3

  5. #34
    Senior Droid L'avatar di AndroBoz


    Registrato dal
    May 2010
    Località
    Treviso
    Messaggi
    342
    Smartphone
    Sony Xperia S

    Ringraziamenti
    11
    Ringraziato 15 volte in 15 Posts
    Predefinito

    Ok, ora va, ma la riga di testo allora dovrebbe essere un po' più comprensibile.

    Cmq ora che ho capito, farò le mie prove.

    EDIT: ho provato di nuovo a encodare l'mp4 di opensuse (quello linkato) e mi da l'errore:
    codice:
    Stream mapping:
      Stream #0.0 -> #0.0
    [libx264 @ 0x8a417f0]using SAR=8/9
    [libx264 @ 0x8a417f0]frame MB size (30x20) > level limit (396)
    [libx264 @ 0x8a417f0]DPB size (5 frames, 1152000 bytes) > level limit (3 frames, 912384 bytes)
    [libx264 @ 0x8a417f0]MB rate (18000000) > level limit (11880)
    [libx264 @ 0x8a417f0]using cpu capabilities: MMX2 Cache64
    [libx264 @ 0x8a417f0]requested bitrate is too low. estimated minimum is 6819 kbps
    Error while opening codec for output stream #0.0 - maybe incorrect parameters such as bit_rate, rate, width or height
    FFmpeg version SVN-r0.5.1-4:0.5.1-1ubuntu1, Copyright (c) 2000-2009 Fabrice Bellard, et al.
      configuration: --extra-version=4:0.5.1-1ubuntu1 --prefix=/usr --enable-avfilter --enable-avfilter-lavf --enable-vdpau --enable-bzlib --enable-libgsm --enable-libschroedinger --enable-libspeex --enable-libtheora --enable-libvorbis --enable-pthreads --enable-zlib --disable-stripping --disable-vhook --enable-runtime-cpudetect --enable-libmp3lame --enable-libmp3lame --enable-libfaac --enable-nonfree --enable-gpl --enable-postproc --enable-swscale --enable-x11grab --enable-libx264 --enable-libdc1394 --enable-shared --disable-static
      libavutil     49.15. 0 / 49.15. 0
      libavcodec    52.20. 1 / 52.20. 1
      libavformat   52.31. 0 / 52.31. 0
      libavdevice   52. 1. 0 / 52. 1. 0
      libavfilter    0. 4. 0 /  0. 4. 0
      libswscale     0. 7. 1 /  0. 7. 1
      libpostproc   51. 2. 0 / 51. 2. 0
      built on Jun 18 2010 13:31:34, gcc: 4.4.3
    tmp-video.mp4: Unknown format
    Ultima modifica di AndroBoz; 21-06-10 alle 15:48


    HTC Legend
    Blayo 0.8.4 (Ottima!)

    HTC Desire HD
    ENG Hboot - S-OFF
    Recovery: 4EXT Recovery
    ROM: Virtuos 4 - Ice Cream Sandwich!


    Welcome Xperia S!

  6. #35
    Androidiano VIP L'avatar di elegos


    Registrato dal
    Jul 2009
    Messaggi
    1,714

    Ringraziamenti
    2
    Ringraziato 153 volte in 120 Posts
    Predefinito

    Uhm... penso che il problema sia in FFmpeg questa volta... Comunque quell'errore è perché non è stato encodato video-tmp.mp4, potresti postare l'intero log per favore?
    Questo è il mio output:
    codice:
    elegos:android-video elegos$ ./avc -i ../opensuse.mp4 
    EleGoS' Advanced Video Converter for Android Devices v.1.6.1
    
    FFmpeg version 0.5.1, Copyright (c) 2000-2009 Fabrice Bellard, et al.
      configuration: --prefix=/opt/local --disable-vhook --enable-gpl --enable-postproc --enable-swscale --enable-avfilter --enable-avfilter-lavf --enable-libmp3lame --enable-libvorbis --enable-libtheora --enable-libdirac --enable-libschroedinger --enable-libfaac --enable-libfaad --enable-libxvid --enable-libx264 --enable-nonfree --mandir=/opt/local/share/man --enable-shared --enable-pthreads --cc=/usr/bin/gcc-4.2 --arch=x86_64
      libavutil     49.15. 0 / 49.15. 0
      libavcodec    52.20. 1 / 52.20. 1
      libavformat   52.31. 0 / 52.31. 0
      libavdevice   52. 1. 0 / 52. 1. 0
      libavfilter    1. 4. 0 /  1. 4. 0
      libswscale     1. 7. 1 /  1. 7. 1
      libpostproc   51. 2. 0 / 51. 2. 0
      built on Jun 16 2010 17:11:56, gcc: 4.2.1 (Apple Inc. build 5659)
    Input #0, mov,mp4,m4a,3gp,3g2,mj2, from '../opensuse.mp4':
      Duration: 00:00:42.06, start: 0.000000, bitrate: 2045 kb/s
        Stream #0.0(und): Video: mpeg4, yuv420p, 640x480 [PAR 1:1 DAR 4:3], 30k tbr, 30k tbn, 30k tbc
        Stream #0.1(und): Audio: aac, 48000 Hz, mono, s16
    Output #0, adts, to 'audio.aac':
        Stream #0.0(und): Audio: libfaac, 48000 Hz, stereo, s16, 128 kb/s
    Stream mapping:
      Stream #0.1 -> #0.0
    Press [q] to stop encoding
    size=     609kB time=41.96 bitrate= 119.0kbits/s    
    video:0kB audio:609kB global headers:0kB muxing overhead 0.000000%
    FFmpeg version 0.5.1, Copyright (c) 2000-2009 Fabrice Bellard, et al.
      configuration: --prefix=/opt/local --disable-vhook --enable-gpl --enable-postproc --enable-swscale --enable-avfilter --enable-avfilter-lavf --enable-libmp3lame --enable-libvorbis --enable-libtheora --enable-libdirac --enable-libschroedinger --enable-libfaac --enable-libfaad --enable-libxvid --enable-libx264 --enable-nonfree --mandir=/opt/local/share/man --enable-shared --enable-pthreads --cc=/usr/bin/gcc-4.2 --arch=x86_64
      libavutil     49.15. 0 / 49.15. 0
      libavcodec    52.20. 1 / 52.20. 1
      libavformat   52.31. 0 / 52.31. 0
      libavdevice   52. 1. 0 / 52. 1. 0
      libavfilter    1. 4. 0 /  1. 4. 0
      libswscale     1. 7. 1 /  1. 7. 1
      libpostproc   51. 2. 0 / 51. 2. 0
      built on Jun 16 2010 17:11:56, gcc: 4.2.1 (Apple Inc. build 5659)
    Input #0, mov,mp4,m4a,3gp,3g2,mj2, from '../opensuse.mp4':
      Duration: 00:00:42.06, start: 0.000000, bitrate: 2045 kb/s
        Stream #0.0(und): Video: mpeg4, yuv420p, 640x480 [PAR 1:1 DAR 4:3], 30k tbr, 30k tbn, 30k tbc
        Stream #0.1(und): Audio: aac, 48000 Hz, mono, s16
    Output #0, rawvideo, to '/dev/null':
        Stream #0.0(und): Video: libx264, yuv420p, 800x480 [PAR 4:5 DAR 4:3], q=10-51, pass 1, 500 kb/s, 90k tbn, 30k tbc
    Stream mapping:
      Stream #0.0 -> #0.0
    [libx264 @ 0x101812c00]using SAR=4/5
    [libx264 @ 0x101812c00]frame MB size (50x30) > level limit (396)
    [libx264 @ 0x101812c00]MB rate (45000000) > level limit (11880)
    [libx264 @ 0x101812c00]using cpu capabilities: MMX2 SSE2Fast SSSE3 FastShuffle SSE4.1 Cache64
    [libx264 @ 0x101812c00]profile Baseline, level 1.3
    Press [q] to stop encoding
    frame= 1219 fps=224 q=29.0 Lsize=    2393kB time=41.85 bitrate= 468.5kbits/s    
    video:2393kB audio:0kB global headers:0kB muxing overhead 0.000000%
    [libx264 @ 0x101812c00]frame I:7     Avg QP:27.80  size:  8780
    [libx264 @ 0x101812c00]frame P:1212  Avg QP:27.86  size:  1971
    [libx264 @ 0x101812c00]mb I  I16..4: 75.8%  0.0% 24.2%
    [libx264 @ 0x101812c00]mb P  I16..4: 15.1%  0.0%  0.0%  P16..4: 22.4%  0.0%  0.0%  0.0%  0.0%    skip:62.5%
    [libx264 @ 0x101812c00]final ratefactor: 31.99
    [libx264 @ 0x101812c00]coded y,uvDC,uvAC intra: 11.4% 40.5% 6.8% inter: 2.8% 13.3% 0.2%
    [libx264 @ 0x101812c00]i16 v,h,dc,p: 33% 39% 12% 16%
    [libx264 @ 0x101812c00]i4 v,h,dc,ddl,ddr,vr,hd,vl,hu: 29% 37% 17%  3%  2%  2%  4%  2%  4%
    [libx264 @ 0x101812c00]kb/s:468.15
    FFmpeg version 0.5.1, Copyright (c) 2000-2009 Fabrice Bellard, et al.
      configuration: --prefix=/opt/local --disable-vhook --enable-gpl --enable-postproc --enable-swscale --enable-avfilter --enable-avfilter-lavf --enable-libmp3lame --enable-libvorbis --enable-libtheora --enable-libdirac --enable-libschroedinger --enable-libfaac --enable-libfaad --enable-libxvid --enable-libx264 --enable-nonfree --mandir=/opt/local/share/man --enable-shared --enable-pthreads --cc=/usr/bin/gcc-4.2 --arch=x86_64
      libavutil     49.15. 0 / 49.15. 0
      libavcodec    52.20. 1 / 52.20. 1
      libavformat   52.31. 0 / 52.31. 0
      libavdevice   52. 1. 0 / 52. 1. 0
      libavfilter    1. 4. 0 /  1. 4. 0
      libswscale     1. 7. 1 /  1. 7. 1
      libpostproc   51. 2. 0 / 51. 2. 0
      built on Jun 16 2010 17:11:56, gcc: 4.2.1 (Apple Inc. build 5659)
    Input #0, mov,mp4,m4a,3gp,3g2,mj2, from '../opensuse.mp4':
      Duration: 00:00:42.06, start: 0.000000, bitrate: 2045 kb/s
        Stream #0.0(und): Video: mpeg4, yuv420p, 640x480 [PAR 1:1 DAR 4:3], 30k tbr, 30k tbn, 30k tbc
        Stream #0.1(und): Audio: aac, 48000 Hz, mono, s16
    Output #0, mp4, to 'tmp-video.mp4':
        Stream #0.0(und): Video: libx264, yuv420p, 800x480 [PAR 4:5 DAR 4:3], q=10-51, pass 2, 500 kb/s, 90k tbn, 30k tbc
    Stream mapping:
      Stream #0.0 -> #0.0
    [libx264 @ 0x101812c00]using SAR=4/5
    [libx264 @ 0x101812c00]frame MB size (50x30) > level limit (396)
    [libx264 @ 0x101812c00]DPB size (5 frames, 2880000 bytes) > level limit (1 frames, 912384 bytes)
    [libx264 @ 0x101812c00]MB rate (45000000) > level limit (11880)
    [libx264 @ 0x101812c00]using cpu capabilities: MMX2 SSE2Fast SSSE3 FastShuffle SSE4.1 Cache64
    [libx264 @ 0x101812c00]profile Baseline, level 1.3
    Press [q] to stop encoding
    frame= 1219 fps= 52 q=35.0 Lsize=    2597kB time=41.85 bitrate= 508.4kbits/s    
    video:2577kB audio:0kB global headers:0kB muxing overhead 0.759132%
    [libx264 @ 0x101812c00]frame I:7     Avg QP:24.74  size:  9214
    [libx264 @ 0x101812c00]frame P:1212  Avg QP:27.45  size:  2124
    [libx264 @ 0x101812c00]mb I  I16..4: 78.1%  0.0% 21.9%
    [libx264 @ 0x101812c00]mb P  I16..4: 18.3%  0.0%  0.6%  P16..4: 24.4%  3.5%  0.3%  0.0%  0.0%    skip:52.9%
    [libx264 @ 0x101812c00]coded y,uvDC,uvAC intra: 7.9% 37.6% 4.0% inter: 2.3% 8.9% 0.1%
    [libx264 @ 0x101812c00]i16 v,h,dc,p: 36% 39% 15% 11%
    [libx264 @ 0x101812c00]i4 v,h,dc,ddl,ddr,vr,hd,vl,hu: 22% 39% 28%  1%  1%  2%  2%  1%  3%
    [libx264 @ 0x101812c00]ref P L0: 65.9% 14.5% 10.5%  4.4%  4.6%
    [libx264 @ 0x101812c00]kb/s:504.01
    FFmpeg version 0.5.1, Copyright (c) 2000-2009 Fabrice Bellard, et al.
      configuration: --prefix=/opt/local --disable-vhook --enable-gpl --enable-postproc --enable-swscale --enable-avfilter --enable-avfilter-lavf --enable-libmp3lame --enable-libvorbis --enable-libtheora --enable-libdirac --enable-libschroedinger --enable-libfaac --enable-libfaad --enable-libxvid --enable-libx264 --enable-nonfree --mandir=/opt/local/share/man --enable-shared --enable-pthreads --cc=/usr/bin/gcc-4.2 --arch=x86_64
      libavutil     49.15. 0 / 49.15. 0
      libavcodec    52.20. 1 / 52.20. 1
      libavformat   52.31. 0 / 52.31. 0
      libavdevice   52. 1. 0 / 52. 1. 0
      libavfilter    1. 4. 0 /  1. 4. 0
      libswscale     1. 7. 1 /  1. 7. 1
      libpostproc   51. 2. 0 / 51. 2. 0
      built on Jun 16 2010 17:11:56, gcc: 4.2.1 (Apple Inc. build 5659)
    
    Seems stream 0 codec frame rate differs from container frame rate: 60000.00 (60000/1) -> 30000.00 (60000/2)
    Input #0, mov,mp4,m4a,3gp,3g2,mj2, from 'tmp-video.mp4':
      Duration: 00:00:41.84, start: 0.000000, bitrate: 508 kb/s
        Stream #0.0(und): Video: h264, yuv420p, 800x480, 30k tbr, 30k tbn, 60k tbc
    Input #1, aac, from 'audio.aac':
      Duration: 00:00:41.85, bitrate: 119 kb/s
        Stream #1.0: Audio: aac, 48000 Hz, stereo, s16, 119 kb/s
    Output #0, mp4, to 'opensuse-android.mp4':
        Stream #0.0(und): Video: libx264, yuv420p, 800x480, q=2-31, 90k tbn, 30k tbc
        Stream #0.1: Audio: libfaac, 48000 Hz, stereo, s16, 128 kb/s
    Stream mapping:
      Stream #0.0 -> #0.0
      Stream #1.0 -> #0.1
    Press [q] to stop encoding
    frame= 1219 fps=1031 q=-1.0 Lsize=    3209kB time=41.85 bitrate= 628.1kbits/s    
    video:2577kB audio:596kB global headers:0kB muxing overhead 1.114280%

  7. #36
    Senior Droid L'avatar di AndroBoz


    Registrato dal
    May 2010
    Località
    Treviso
    Messaggi
    342
    Smartphone
    Sony Xperia S

    Ringraziamenti
    11
    Ringraziato 15 volte in 15 Posts
    Predefinito

    Lo fa praticamente con tutti gli mp4, ecco il log completo:
    codice:
    alby@alby-laptop:~/ScriptVideo$ ./avc -i /home/alby/Dropbox/Public/opensuse.mp4 EleGoS' Advanced Video Converter for Android Devices v.1.6.1
    
    FFmpeg version SVN-r0.5.1-4:0.5.1-1ubuntu1, Copyright (c) 2000-2009 Fabrice Bellard, et al.
      configuration: --extra-version=4:0.5.1-1ubuntu1 --prefix=/usr --enable-avfilter --enable-avfilter-lavf --enable-vdpau --enable-bzlib --enable-libgsm --enable-libschroedinger --enable-libspeex --enable-libtheora --enable-libvorbis --enable-pthreads --enable-zlib --disable-stripping --disable-vhook --enable-runtime-cpudetect --enable-libmp3lame --enable-libmp3lame --enable-libfaac --enable-nonfree --enable-gpl --enable-postproc --enable-swscale --enable-x11grab --enable-libx264 --enable-libdc1394 --enable-shared --disable-static
      libavutil     49.15. 0 / 49.15. 0
      libavcodec    52.20. 1 / 52.20. 1
      libavformat   52.31. 0 / 52.31. 0
      libavdevice   52. 1. 0 / 52. 1. 0
      libavfilter    0. 4. 0 /  0. 4. 0
      libswscale     0. 7. 1 /  0. 7. 1
      libpostproc   51. 2. 0 / 51. 2. 0
      built on Jun 18 2010 13:31:34, gcc: 4.4.3
    Input #0, mov,mp4,m4a,3gp,3g2,mj2, from '/home/alby/Dropbox/Public/opensuse.mp4':
      Duration: 00:00:42.06, start: 0.000000, bitrate: 2045 kb/s
        Stream #0.0(und): Video: mpeg4, yuv420p, 640x480 [PAR 1:1 DAR 4:3], 30k tbr, 30k tbn, 30k tbc
        Stream #0.1(und): Audio: aac, 48000 Hz, mono, s16
    Output #0, adts, to 'audio.aac':
        Stream #0.0(und): Audio: libfaac, 48000 Hz, stereo, s16, 128 kb/s
    Stream mapping:
      Stream #0.1 -> #0.0
    Press [q] to stop encoding
    size=     609kB time=41.96 bitrate= 119.0kbits/s    
    video:0kB audio:609kB global headers:0kB muxing overhead 0.000000%
    FFmpeg version SVN-r0.5.1-4:0.5.1-1ubuntu1, Copyright (c) 2000-2009 Fabrice Bellard, et al.
      configuration: --extra-version=4:0.5.1-1ubuntu1 --prefix=/usr --enable-avfilter --enable-avfilter-lavf --enable-vdpau --enable-bzlib --enable-libgsm --enable-libschroedinger --enable-libspeex --enable-libtheora --enable-libvorbis --enable-pthreads --enable-zlib --disable-stripping --disable-vhook --enable-runtime-cpudetect --enable-libmp3lame --enable-libmp3lame --enable-libfaac --enable-nonfree --enable-gpl --enable-postproc --enable-swscale --enable-x11grab --enable-libx264 --enable-libdc1394 --enable-shared --disable-static
      libavutil     49.15. 0 / 49.15. 0
      libavcodec    52.20. 1 / 52.20. 1
      libavformat   52.31. 0 / 52.31. 0
      libavdevice   52. 1. 0 / 52. 1. 0
      libavfilter    0. 4. 0 /  0. 4. 0
      libswscale     0. 7. 1 /  0. 7. 1
      libpostproc   51. 2. 0 / 51. 2. 0
      built on Jun 18 2010 13:31:34, gcc: 4.4.3
    Input #0, mov,mp4,m4a,3gp,3g2,mj2, from '/home/alby/Dropbox/Public/opensuse.mp4':
      Duration: 00:00:42.06, start: 0.000000, bitrate: 2045 kb/s
        Stream #0.0(und): Video: mpeg4, yuv420p, 640x480 [PAR 1:1 DAR 4:3], 30k tbr, 30k tbn, 30k tbc
        Stream #0.1(und): Audio: aac, 48000 Hz, mono, s16
    Output #0, rawvideo, to '/dev/null':
        Stream #0.0(und): Video: libx264, yuv420p, 480x320 [PAR 8:9 DAR 4:3], q=10-51, pass 1, 500 kb/s, 90k tbn, 30k tbc
    Stream mapping:
      Stream #0.0 -> #0.0
    [libx264 @ 0x81dbf90]using SAR=8/9
    [libx264 @ 0x81dbf90]frame MB size (30x20) > level limit (396)
    [libx264 @ 0x81dbf90]MB rate (18000000) > level limit (11880)
    [libx264 @ 0x81dbf90]using cpu capabilities: MMX2 Cache64
    [libx264 @ 0x81dbf90]profile Baseline, level 1.3
    Press [q] to stop encoding
    frame=   34 fps=  0 q=479.0 size=       0kB time=10000000000.00 bitrate=   0.0kbframe= 1219 fps= 53 q=-1.0 Lsize=       0kB time=41.85 bitrate=   0.0kbits/s    
    video:114kB audio:0kB global headers:0kB muxing overhead -99.999143%
    [libx264 @ 0x81dbf90]frame I:7     Avg QP:47.62  size:  1042
    [libx264 @ 0x81dbf90]frame P:1212  Avg QP:50.07  size:    90
    [libx264 @ 0x81dbf90]mb I  I16..4: 98.5%  0.0%  1.5%
    [libx264 @ 0x81dbf90]mb P  I16..4:  3.4%  0.0%  0.0%  P16..4:  1.8%  0.0%  0.0%  0.0%  0.0%    skip:94.8%
    [libx264 @ 0x81dbf90]final ratefactor: 83.80
    [libx264 @ 0x81dbf90]coded y,uvDC,uvAC intra: 1.3% 25.1% 3.4% inter: 0.0% 0.6% 0.0%
    [libx264 @ 0x81dbf90]i16 v,h,dc,p: 42% 36% 12%  9%
    [libx264 @ 0x81dbf90]i4 v,h,dc,ddl,ddr,vr,hd,vl,hu: 18% 17% 53%  5%  1%  1%  1%  1%  1%
    [libx264 @ 0x81dbf90]kb/s:22967.94
    FFmpeg version SVN-r0.5.1-4:0.5.1-1ubuntu1, Copyright (c) 2000-2009 Fabrice Bellard, et al.
      configuration: --extra-version=4:0.5.1-1ubuntu1 --prefix=/usr --enable-avfilter --enable-avfilter-lavf --enable-vdpau --enable-bzlib --enable-libgsm --enable-libschroedinger --enable-libspeex --enable-libtheora --enable-libvorbis --enable-pthreads --enable-zlib --disable-stripping --disable-vhook --enable-runtime-cpudetect --enable-libmp3lame --enable-libmp3lame --enable-libfaac --enable-nonfree --enable-gpl --enable-postproc --enable-swscale --enable-x11grab --enable-libx264 --enable-libdc1394 --enable-shared --disable-static
      libavutil     49.15. 0 / 49.15. 0
      libavcodec    52.20. 1 / 52.20. 1
      libavformat   52.31. 0 / 52.31. 0
      libavdevice   52. 1. 0 / 52. 1. 0
      libavfilter    0. 4. 0 /  0. 4. 0
      libswscale     0. 7. 1 /  0. 7. 1
      libpostproc   51. 2. 0 / 51. 2. 0
      built on Jun 18 2010 13:31:34, gcc: 4.4.3
    Input #0, mov,mp4,m4a,3gp,3g2,mj2, from '/home/alby/Dropbox/Public/opensuse.mp4':
      Duration: 00:00:42.06, start: 0.000000, bitrate: 2045 kb/s
        Stream #0.0(und): Video: mpeg4, yuv420p, 640x480 [PAR 1:1 DAR 4:3], 30k tbr, 30k tbn, 30k tbc
        Stream #0.1(und): Audio: aac, 48000 Hz, mono, s16
    Output #0, mp4, to 'tmp-video.mp4':
        Stream #0.0(und): Video: libx264, yuv420p, 480x320 [PAR 8:9 DAR 4:3], q=10-51, pass 2, 500 kb/s, 90k tbn, 30k tbc
    Stream mapping:
      Stream #0.0 -> #0.0
    [libx264 @ 0x8e897f0]using SAR=8/9
    [libx264 @ 0x8e897f0]frame MB size (30x20) > level limit (396)
    [libx264 @ 0x8e897f0]DPB size (5 frames, 1152000 bytes) > level limit (3 frames, 912384 bytes)
    [libx264 @ 0x8e897f0]MB rate (18000000) > level limit (11880)
    [libx264 @ 0x8e897f0]using cpu capabilities: MMX2 Cache64
    [libx264 @ 0x8e897f0]requested bitrate is too low. estimated minimum is 6819 kbps
    Error while opening codec for output stream #0.0 - maybe incorrect parameters such as bit_rate, rate, width or height
    FFmpeg version SVN-r0.5.1-4:0.5.1-1ubuntu1, Copyright (c) 2000-2009 Fabrice Bellard, et al.
      configuration: --extra-version=4:0.5.1-1ubuntu1 --prefix=/usr --enable-avfilter --enable-avfilter-lavf --enable-vdpau --enable-bzlib --enable-libgsm --enable-libschroedinger --enable-libspeex --enable-libtheora --enable-libvorbis --enable-pthreads --enable-zlib --disable-stripping --disable-vhook --enable-runtime-cpudetect --enable-libmp3lame --enable-libmp3lame --enable-libfaac --enable-nonfree --enable-gpl --enable-postproc --enable-swscale --enable-x11grab --enable-libx264 --enable-libdc1394 --enable-shared --disable-static
      libavutil     49.15. 0 / 49.15. 0
      libavcodec    52.20. 1 / 52.20. 1
      libavformat   52.31. 0 / 52.31. 0
      libavdevice   52. 1. 0 / 52. 1. 0
      libavfilter    0. 4. 0 /  0. 4. 0
      libswscale     0. 7. 1 /  0. 7. 1
      libpostproc   51. 2. 0 / 51. 2. 0
      built on Jun 18 2010 13:31:34, gcc: 4.4.3
    tmp-video.mp4: Unknown format
    Ma tu usi mac vero?


    HTC Legend
    Blayo 0.8.4 (Ottima!)

    HTC Desire HD
    ENG Hboot - S-OFF
    Recovery: 4EXT Recovery
    ROM: Virtuos 4 - Ice Cream Sandwich!


    Welcome Xperia S!

  8. #37
    Androidiano VIP L'avatar di elegos


    Registrato dal
    Jul 2009
    Messaggi
    1,714

    Ringraziamenti
    2
    Ringraziato 153 volte in 120 Posts
    Predefinito

    hai per caso modificato il bitrate? Che dice questo:
    codice:
    [libx264 @ 0x8e897f0]requested bitrate is too low. estimated minimum is 6819 kbps
    Ma in preferences.avc è impostato a 500k di default, dovrebbe essere sufficiente

    P.S.
    Sì io sto sul mac
    Ultima modifica di elegos; 21-06-10 alle 16:33

  9. #38
    Senior Droid L'avatar di AndroBoz


    Registrato dal
    May 2010
    Località
    Treviso
    Messaggi
    342
    Smartphone
    Sony Xperia S

    Ringraziamenti
    11
    Ringraziato 15 volte in 15 Posts
    Predefinito

    no, il mio file preferences.avc è questo:
    codice:
    audio_bitrate=128k
    video_bitrate=500k
    device_height=320
    device_width=480
    
    ## Acer A1 Liquid, HTC Desire, Nexus One
    # => 480x800
    ## HTC (Dream, Hero, Legend, Magic), Samsung (i5700, i7500)
    # => 320x480
    ## HTC Tatoo
    # => 240x320
    ## Motorola (Droid, Milestone), Sony Xperia X10
    # => 480x854
    p.s.: se non ti da fastidio ti aggiungo a Gtalk, così non creiamo un post lungo otto chilometri di Codice.
    Ultima modifica di AndroBoz; 21-06-10 alle 16:35


    HTC Legend
    Blayo 0.8.4 (Ottima!)

    HTC Desire HD
    ENG Hboot - S-OFF
    Recovery: 4EXT Recovery
    ROM: Virtuos 4 - Ice Cream Sandwich!


    Welcome Xperia S!

  10. #39
    Androidiano VIP L'avatar di elegos


    Registrato dal
    Jul 2009
    Messaggi
    1,714

    Ringraziamenti
    2
    Ringraziato 153 volte in 120 Posts
    Predefinito

    nessun problema, basta leggermi :P

  11. #40
    Androidiano VIP L'avatar di elegos


    Registrato dal
    Jul 2009
    Messaggi
    1,714

    Ringraziamenti
    2
    Ringraziato 153 volte in 120 Posts
    Predefinito

    Versione 1.7 disponibile!
    Aggiornare i file avc e functions

    - Reimplementato il sistema di acquisizione della risoluzione del video originale

Pagina 4 di 6 primaprima ... 23456 ultimoultimo
Ultima pagina

Permessi di invio

  • Non puoi inserire discussioni
  • Non puoi inserire risposte
  • Non puoi inserire allegati
  • Non puoi modificare i tuoi messaggi
  •  
Torna su
Privacy Policy