CERCA
PER MODELLO
FullScreen Chatbox! :)

Utente del giorno: Stahl con ben 10 Thanks ricevuti nelle ultime 24 ore
Utente della settimana: Stahl con ben 117 Thanks ricevuti negli ultimi sette giorni
Utente del mese: Stahl con ben 429 Thanks ricevuti nell'ultimo mese

Pagina 5 di 6 primaprima ... 3456 ultimoultimo
Ultima pagina
Visualizzazione dei risultati da 41 a 50 su 53
Discussione:

[BETA][BASH] Convertitore video per device Android!

Se questa discussione ti è stata utile, ti preghiamo di lasciare un messaggio di feedback in modo che possa essere preziosa in futuro anche per altri utenti come te!
  1. #41
    Senior Droid L'avatar di AndroBoz


    Registrato dal
    May 2010
    Località
    Treviso
    Messaggi
    342
    Smartphone
    Sony Xperia S

    Ringraziamenti
    11
    Ringraziato 15 volte in 15 Posts
    Predefinito

    Ho aggiornato ffmpeg all'ultima versione svn disponibile sul sito e compilato con tutti i codec ed encoder (finalmente).

    Solo che mi da l'errore "use vf=pad" e ho trovato questa discussione a riguardo che parla di questo errore nelle nuove versioni di ffmpeg:
    Please Use Vf=Pad


    HTC Legend
    Blayo 0.8.4 (Ottima!)

    HTC Desire HD
    ENG Hboot - S-OFF
    Recovery: 4EXT Recovery
    ROM: Virtuos 4 - Ice Cream Sandwich!


    Welcome Xperia S!

  2.  
  3. #42
    Androidiano VIP L'avatar di elegos


    Registrato dal
    Jul 2009
    Messaggi
    1,714

    Ringraziamenti
    2
    Ringraziato 153 volte in 120 Posts
    Predefinito

    potresti quindi postarmi il man ffmpeg per quell'opzione (-vf)? Così mi regolo ^^

    P.S.
    Uffi, ora devo fare un doppio comando, sia per le vecchie che per le nuove versioni xD

  4. #43
    Senior Droid L'avatar di AndroBoz


    Registrato dal
    May 2010
    Località
    Treviso
    Messaggi
    342
    Smartphone
    Sony Xperia S

    Ringraziamenti
    11
    Ringraziato 15 volte in 15 Posts
    Predefinito

    No, non c'è l'opzione sul man.. Girando in rete ho visto che non sono l'unico ad avere questo problema con le ultime versioni.


    HTC Legend
    Blayo 0.8.4 (Ottima!)

    HTC Desire HD
    ENG Hboot - S-OFF
    Recovery: 4EXT Recovery
    ROM: Virtuos 4 - Ice Cream Sandwich!


    Welcome Xperia S!

  5. #44
    Androidiano VIP L'avatar di elegos


    Registrato dal
    Jul 2009
    Messaggi
    1,714

    Ringraziamenti
    2
    Ringraziato 153 volte in 120 Posts
    Predefinito

    Versione 1.8 disponibile!
    Aggiornare i file avc e preferences.avc

    - Implementata opzione vf=pad (vedi preferences.avc) ! non testato

  6. #45
    Androidiano VIP L'avatar di elegos


    Registrato dal
    Jul 2009
    Messaggi
    1,714

    Ringraziamenti
    2
    Ringraziato 153 volte in 120 Posts
    Predefinito

    Versione 1.8.2 disponibile!
    Aggiornare il file avc

    - FIX "Requested output format 'aac' is not a suitable output format" per le nuove versioni di FFmpeg (SVN)
    - HOTFIX errore scripting in BASH

    Si ricorda a chiunque avesse l'errore "Please use vf=pad" (ultimissime versioni SVN di FFmpeg) di abilitare l'apposita opzione nel file delle preferenze!

  7. #46
    Senior Droid L'avatar di AndroBoz


    Registrato dal
    May 2010
    Località
    Treviso
    Messaggi
    342
    Smartphone
    Sony Xperia S

    Ringraziamenti
    11
    Ringraziato 15 volte in 15 Posts
    Predefinito

    Bug test con la nuova versione SVN con l'opzione:

    # used for newly SVN builds of FFmpeg ("please use vf=pad") (1=yes)
    vf_pad=1

    questo è l'output:
    codice:
    EleGoS' Advanced Video Converter for Android Devices v.1.8.2
    
    D/resizeVideo: init
    FFmpeg version SVN-r23679, Copyright (c) 2000-2010 the FFmpeg developers
      built on Jun 21 2010 17:41:57 with gcc 4.4.3
      configuration: --enable-gpl --enable-version3 --enable-nonfree --enable-postproc --enable-pthreads --enable-libfaac --enable-libmp3lame --enable-libopencore-amrnb --enable-libopencore-amrwb --enable-libtheora --enable-libvorbis --enable-libvpx --enable-libx264 --enable-libxvid --enable-x11grab
      libavutil     50.19. 0 / 50.19. 0
      libavcodec    52.77. 0 / 52.77. 0
      libavformat   52.68. 0 / 52.68. 0
      libavdevice   52. 2. 0 / 52. 2. 0
      libavfilter    1.20. 0 /  1.20. 0
      libswscale     0.11. 0 /  0.11. 0
      libpostproc   51. 2. 0 / 51. 2. 0
    
    Seems stream 0 codec frame rate differs from container frame rate: 23.98 (65535/2733) -> 23.98 (2997003/125000)
    Input #0, avi, from '/home/alby/prova-fringe.avi':
      Duration: 00:01:44.56, start: 0.000000, bitrate: 1852 kb/s
        Stream #0.0: Video: mpeg4, yuv420p, 624x352 [PAR 1:1 DAR 39:22], 23.98 tbr, 23.98 tbn, 23.98 tbc
        Stream #0.1: Audio: mp3, 48000 Hz, 2 channels, s16, 192 kb/s
    Output #0, adts, to 'audio.aac':
      Metadata:
        encoder         : Lavf52.68.0
        Stream #0.0: Audio: libfaac, 48000 Hz, 2 channels, s16, 128 kb/s
    Stream mapping:
      Stream #0.1 -> #0.0
    Press [q] to stop encoding
    size=    1631kB time=104.51 bitrate= 127.9kbits/s    
    video:0kB audio:1631kB global headers:0kB muxing overhead 0.000000%
    FFmpeg version SVN-r23679, Copyright (c) 2000-2010 the FFmpeg developers
      built on Jun 21 2010 17:41:57 with gcc 4.4.3
      configuration: --enable-gpl --enable-version3 --enable-nonfree --enable-postproc --enable-pthreads --enable-libfaac --enable-libmp3lame --enable-libopencore-amrnb --enable-libopencore-amrwb --enable-libtheora --enable-libvorbis --enable-libvpx --enable-libx264 --enable-libxvid --enable-x11grab
      libavutil     50.19. 0 / 50.19. 0
      libavcodec    52.77. 0 / 52.77. 0
      libavformat   52.68. 0 / 52.68. 0
      libavdevice   52. 2. 0 / 52. 2. 0
      libavfilter    1.20. 0 /  1.20. 0
      libswscale     0.11. 0 /  0.11. 0
      libpostproc   51. 2. 0 / 51. 2. 0
    
    Seems stream 0 codec frame rate differs from container frame rate: 23.98 (65535/2733) -> 23.98 (2997003/125000)
    Input #0, avi, from '/home/alby/prova-fringe.avi':
      Duration: 00:01:44.56, start: 0.000000, bitrate: 1852 kb/s
        Stream #0.0: Video: mpeg4, yuv420p, 624x352 [PAR 1:1 DAR 39:22], 23.98 tbr, 23.98 tbn, 23.98 tbc
        Stream #0.1: Audio: mp3, 48000 Hz, 2 channels, s16, 192 kb/s
    no such filter: '"pad'
    Error opening filters!
    FFmpeg version SVN-r23679, Copyright (c) 2000-2010 the FFmpeg developers
      built on Jun 21 2010 17:41:57 with gcc 4.4.3
      configuration: --enable-gpl --enable-version3 --enable-nonfree --enable-postproc --enable-pthreads --enable-libfaac --enable-libmp3lame --enable-libopencore-amrnb --enable-libopencore-amrwb --enable-libtheora --enable-libvorbis --enable-libvpx --enable-libx264 --enable-libxvid --enable-x11grab
      libavutil     50.19. 0 / 50.19. 0
      libavcodec    52.77. 0 / 52.77. 0
      libavformat   52.68. 0 / 52.68. 0
      libavdevice   52. 2. 0 / 52. 2. 0
      libavfilter    1.20. 0 /  1.20. 0
      libswscale     0.11. 0 /  0.11. 0
      libpostproc   51. 2. 0 / 51. 2. 0
    
    Seems stream 0 codec frame rate differs from container frame rate: 23.98 (65535/2733) -> 23.98 (2997003/125000)
    Input #0, avi, from '/home/alby/prova-fringe.avi':
      Duration: 00:01:44.56, start: 0.000000, bitrate: 1852 kb/s
        Stream #0.0: Video: mpeg4, yuv420p, 624x352 [PAR 1:1 DAR 39:22], 23.98 tbr, 23.98 tbn, 23.98 tbc
        Stream #0.1: Audio: mp3, 48000 Hz, 2 channels, s16, 192 kb/s
    no such filter: '"pad'
    Error opening filters!
    FFmpeg version SVN-r23679, Copyright (c) 2000-2010 the FFmpeg developers
      built on Jun 21 2010 17:41:57 with gcc 4.4.3
      configuration: --enable-gpl --enable-version3 --enable-nonfree --enable-postproc --enable-pthreads --enable-libfaac --enable-libmp3lame --enable-libopencore-amrnb --enable-libopencore-amrwb --enable-libtheora --enable-libvorbis --enable-libvpx --enable-libx264 --enable-libxvid --enable-x11grab
      libavutil     50.19. 0 / 50.19. 0
      libavcodec    52.77. 0 / 52.77. 0
      libavformat   52.68. 0 / 52.68. 0
      libavdevice   52. 2. 0 / 52. 2. 0
      libavfilter    1.20. 0 /  1.20. 0
      libswscale     0.11. 0 /  0.11. 0
      libpostproc   51. 2. 0 / 51. 2. 0
    tmp-video.mp4: Invalid data found when processing input
    rm: impossibile rimuovere `*.log*': Nessun file o directory
    è in rosso anche sul terminale.


    HTC Legend
    Blayo 0.8.4 (Ottima!)

    HTC Desire HD
    ENG Hboot - S-OFF
    Recovery: 4EXT Recovery
    ROM: Virtuos 4 - Ice Cream Sandwich!


    Welcome Xperia S!

  8. #47
    Senior Droid L'avatar di AndroBoz


    Registrato dal
    May 2010
    Località
    Treviso
    Messaggi
    342
    Smartphone
    Sony Xperia S

    Ringraziamenti
    11
    Ringraziato 15 volte in 15 Posts
    Predefinito

    Consiglio a chi vuole installare ffmpeg su ubuntu con 2 semplici passaggi sulla nuova versione di ubuntu con tutti i codec al posto giusto e funzionante con questa versione dello script, e senza nessuna compilazione:

    Abilitare i repo di Medibuntu con questa stringa sul terminale:

    codice:
    sudo wget http://www.medibuntu.org/sources.list.d/`lsb_release -cs`.list --output-document=/etc/apt/sources.list.d/medibuntu.list && sudo apt-get -q update && sudo apt-get --yes -q --allow-unauthenticated install medibuntu-keyring && sudo apt-get -q update
    una volta completato installate semplicemente ffmpeg con questo comando:

    codice:
    sudo apt-get install ffmpeg libavcodec-extra-52
    Enjoy EleGoS Script!


    HTC Legend
    Blayo 0.8.4 (Ottima!)

    HTC Desire HD
    ENG Hboot - S-OFF
    Recovery: 4EXT Recovery
    ROM: Virtuos 4 - Ice Cream Sandwich!


    Welcome Xperia S!

  9. #48
    Androidiano VIP L'avatar di elegos


    Registrato dal
    Jul 2009
    Messaggi
    1,714

    Ringraziamenti
    2
    Ringraziato 153 volte in 120 Posts
    Predefinito

    Prova con la nuova versione

  10. #49
    Androidiano VIP L'avatar di elegos


    Registrato dal
    Jul 2009
    Messaggi
    1,714

    Ringraziamenti
    2
    Ringraziato 153 volte in 120 Posts
    Predefinito

    Versione 1.8.3 disponibile!
    Aggiornare il file avc

    - FIX vf (pad) ! non testato

  11. #50
    Senior Droid L'avatar di AndroBoz


    Registrato dal
    May 2010
    Località
    Treviso
    Messaggi
    342
    Smartphone
    Sony Xperia S

    Ringraziamenti
    11
    Ringraziato 15 volte in 15 Posts
    Predefinito

    Classico video di prova --> Quasi successful.

    Nonostante sia un file in 16:9 mi mette i pad anche ai lati inserendo praticamente il video in un quadrato coi bordi neri.


    HTC Legend
    Blayo 0.8.4 (Ottima!)

    HTC Desire HD
    ENG Hboot - S-OFF
    Recovery: 4EXT Recovery
    ROM: Virtuos 4 - Ice Cream Sandwich!


    Welcome Xperia S!

Pagina 5 di 6 primaprima ... 3456 ultimoultimo
Ultima pagina

Permessi di invio

  • Non puoi inserire discussioni
  • Non puoi inserire risposte
  • Non puoi inserire allegati
  • Non puoi modificare i tuoi messaggi
  •  
Torna su
Privacy Policy